<?xml version="1.0" standalone="no"?>
<!DOCTYPE svg PUBLIC "-//W3C//DTD SVG 1.1//EN" "http://www.w3.org/Graphics/SVG/1.1/DTD/svg11.dtd">
<svg xmlns="http://www.w3.org/2000/svg">
<defs >
<font id="PTSerif" horiz-adv-x="564" ><font-face
    font-family="PT Serif"
    units-per-em="1000"
    panose-1="2 10 6 3 4 5 5 2 2 4"
    ascent="1039"
    descent="-286"
    alphabetic="0" />
<glyph unicode=" " glyph-name="space" horiz-adv-x="243" />
<glyph unicode="!" glyph-name="exclam" horiz-adv-x="327" d="M174 218L142 394V690Q164 701 187 701Q210 701 232 690V394L200 218H174ZM119 57Q119 87 138 105T187 123Q218 123 237 105T256 57Q256 28 237 10T187 -8Q157 -8 138 10T119 57Z" />
<glyph unicode="&quot;" glyph-name="quotedbl" horiz-adv-x="380" d="M207 670Q212 683 222 691T250 700Q281 700 292 670L260 504H240L207 670ZM87 670Q92 683 102 691T130 700Q161 700 172 670L140 504H120L87 670Z" />
<glyph unicode="#" glyph-name="numbersign" horiz-adv-x="533" d="M308 233H166L124 58H71L113 233H33L47 279H123L159 429H83L97 475H170L210 642H262L223 475H365L405 642H457L417 475H497L480 429H406L370 279H447L430 233H360L318 58H266L308 233ZM176 279H318L354
429H212L176 279Z" />
<glyph unicode="$" glyph-name="dollar" horiz-adv-x="533" d="M239 -12Q209 -12 181 -8T130 4T88 21T59 39Q60 49 61 65T64 99T68 132T75 157H100L160 60Q173 52 194 47T239 40V325Q235 325 233 327L201 342Q172 355 145 371T98 409T65 462T52 533Q52 569 66
600T104 655T163 693T239 711V760H291V711Q339 708 374 698T436 676Q435 644 428 623T412 586H386L336 654Q325 656 315 657T291 659V392L320 379Q351 364 380 348T433 309T470 254T484 175Q484 102 433 52T291 -9V-70H239V-12ZM394 168Q394 220 364 250T291 301V45Q336
57 365 88T394 168ZM142 551Q142 524 149 504T170 467T200 439T239 415V659Q194 654 168 624T142 551Z" />
<glyph unicode="%" glyph-name="percent" horiz-adv-x="807" d="M675 710L710 679L125 -7L91 25L675 710ZM52 542Q52 581 65 612T101 665T156 700T226 712Q264 712 296 702T351 670T387 617T400 542Q400 503 387 472T351 418T296 384T226 372Q188 372 157 382T102
414T65 467T52 542ZM136 542Q136 482 159 446T226 409Q316 409 316 542Q316 674 226 674Q136 674 136 542ZM405 159Q405 198 418 229T454 282T509 317T579 329Q617 329 649 319T704 287T740 234T753 159Q753 120 740 89T704 35T649 1T579 -11Q541 -11 510 -1T455
31T418 84T405 159ZM489 159Q489 99 512 63T579 26Q669 26 669 159Q669 291 579 291Q489 291 489 159Z" />
<glyph unicode="&amp;" glyph-name="ampersand" horiz-adv-x="869" d="M540 123Q510 150 475 186T406 261T345 334T301 392Q258 350 239 311T220 218Q220 180 232 148T267 91T320 54T387 40Q432 40 471 60T540 123ZM282 583Q282 565 289 545T307 504T332 465T359
431Q395 461 417 500T435 594Q433 626 415 648T358 670Q336 670 322 663T298 643T286 615T282 583ZM697 0Q676 14 644 34T574 92Q560 73 539 55T490 21T426 -3T350 -12Q297 -12 254 4T181 47T135 109T118 182Q118 231 136 270T179 339T231 389T276 423Q247 455
227 498T207 578Q207 603 217 627T246 670T294 700T359 712Q425 712 465 684T506 601Q506 568 495 540T465 487T425 443T380 406Q421 355 475 301T589 193Q597 204 609 230T631 291T648 367T652 450Q622 456 593 474V500H796V474Q769 457 730 450Q721 391 707 343T678
259T650 197T628 159Q666 128 702 102T784 49L839 25V0H697Z" />
<glyph unicode="&apos;" glyph-name="quotesingle" horiz-adv-x="222" d="M87 670Q92 683 102 691T130 700Q161 700 172 670L140 504H120L87 670Z" />
<glyph unicode="(" glyph-name="parenleft" horiz-adv-x="343" d="M300 -210Q249 -173 205 -129T129 -30T78 92T59 243Q59 325 78 391T130 512T207 613T303 702L324 684Q284 641 251 596T195 498T158 383T145 243Q145 168 159 105T197 -12T254 -110T324 -190L300 -210Z" />
<glyph unicode=")" glyph-name="parenright" horiz-adv-x="343" d="M19 -190Q56 -154 88 -109T145 -8T183 113T197 253Q197 330 184 391T148 503T92 598T19 684L40 702Q91 663 135 619T213 521T265 401T284 253Q284 170 266 102T216 -23T140 -126T43 -210L19 -190Z" />
<glyph unicode="*" glyph-name="asterisk" horiz-adv-x="465" d="M62 616Q59 623 61 633T69 654T83 673T101 683L201 596Q201 588 198 581T187 570L62 616ZM100 444Q92 445 84 452T70 470T61 492T61 511L186 554Q201 546 201 530L100 444ZM271 389Q266 383 256
380T233 377Q221 377 211 380T195 388L218 518Q234 526 250 518L271 389ZM402 511Q406 504 404 493T395 472T381 453T364 444L266 528Q266 537 269 542T279 553L402 511ZM366 683Q374 682 382 675T395 657T403 635T403 615L279 568Q265 578 265 594L366 683ZM194
737Q198 743 208 746T231 750Q243 750 254 747T270 737L248 607Q233 597 217 607L194 737Z" />
<glyph unicode="+" glyph-name="plus" horiz-adv-x="533" d="M42 370H240V580H293V370H491V317H293V102H240V317H42V370Z" />
<glyph unicode="," glyph-name="comma" horiz-adv-x="283" d="M51 -149Q70 -142 87 -128T116 -95T135 -56T140 -13Q128 -2 108 9T73 25Q68 44 72 62T86 94T106 116T129 126Q164 121 190 95T217 17Q217 -11 207 -41T178 -99T132 -147T71 -179L51 -149Z" />
<glyph unicode="-" glyph-name="hyphen" horiz-adv-x="425" d="M71 313H353V250H71V313Z" />
<glyph unicode="." glyph-name="period" horiz-adv-x="279" d="M71 57Q71 87 90 105T139 123Q170 123 189 105T208 57Q208 28 189 10T139 -8Q109 -8 90 10T71 57Z" />
<glyph unicode="/" glyph-name="slash" horiz-adv-x="344" d="M327 712L369 694L4 -130L-37 -111L327 712Z" />
<glyph unicode="0" glyph-name="zero" horiz-adv-x="533" d="M35 350Q35 530 95 621T267 712Q388 712 444 623T500 350Q500 170 440 79T261 -12Q200 -12 157 12T87 83T48 197T35 350ZM131 350Q131 278 138 219T160 118T200 52T260 29Q339 29 371 107T404 350Q404
422 398 481T376 582T334 647T267 670Q192 670 162 593T131 350Z" />
<glyph unicode="1" glyph-name="one" horiz-adv-x="533" d="M425 0H133V29Q158 40 183 48T235 63V554L239 613Q211 602 181 598T119 594L114 618Q160 633 209 655T300 712H325V63Q350 57 375 49T425 29V0Z" />
<glyph unicode="2" glyph-name="two" horiz-adv-x="533" d="M133 505H108Q97 534 86 573T66 647Q101 677 150 694T256 712Q306 712 342 698T401 660T436 605T447 539Q447 483 421 424T357 310T273 205T190 119L148 80V76L204 82H376L425 194H450Q452 172 454 146T457
94T460 43T461 0H48V32Q70 55 101 88T167 161T234 246T294 337T336 430T353 518Q353 547 346 573T323 618T287 649T237 660Q216 660 200 657T165 648L133 505Z" />
<glyph unicode="3" glyph-name="three" horiz-adv-x="533" d="M256 35Q284 35 308 47T350 81T378 131T389 190Q389 227 378 255T346 301T300 329T242 339H177V366L345 591L379 626V630L325 624H156L117 522H92Q88 543 85 567T78 614T73 660T71 700H462V669L295
446L252 402V400L286 407Q333 405 370 389T432 347T471 285T485 207Q485 157 465 117T412 48T335 4T243 -12Q220 -12 194 -9T143 2T97 18T60 39L88 129H108Q114 122 124 111T146 88T169 64T188 43Q198 41 214 38T256 35Z" />
<glyph unicode="4" glyph-name="four" horiz-adv-x="533" d="M477 0H217V29Q266 46 309 53V193H4V216L374 712H401V245H528V193H401V53Q440 45 477 29V0ZM309 502L320 574H317L278 502L110 271L70 238L141 245H309V502Z" />
<glyph unicode="5" glyph-name="five" horiz-adv-x="533" d="M431 755H456Q455 740 454 722T449 685T443 649T436 621H190L166 428H231Q281 428 322 415T393 375T439 310T456 223Q456 165 436 121T383 48T308 3T221 -12Q201 -12 178 -9T133 2T90 18T56 39L85 129H105Q111
122 120 111T138 88T157 64T175 43Q185 41 193 38T220 35Q253 35 280 48T328 83T359 136T370 201Q370 241 355 270T314 318T254 346T181 354L110 353L150 700H388L431 755Z" />
<glyph unicode="6" glyph-name="six" horiz-adv-x="533" d="M502 211Q502 165 486 125T441 54T371 6T280 -12Q224 -12 181 7T109 62T64 145T49 250Q49 344 80 422T162 561T280 662T419 718L430 688Q377 669 330 637T245 560T182 462T151 344Q167 371 208 393T303
416Q346 416 383 402T446 362T487 298T502 211ZM406 203Q406 274 372 319T275 364Q228 364 195 341T147 288Q145 274 145 255T145 225Q145 193 153 160T179 98T223 52T285 34Q317 34 340 48T377 87T399 141T406 203Z" />
<glyph unicode="7" glyph-name="seven" horiz-adv-x="533" d="M111 521H86Q82 542 78 566T71 614T67 660T65 700H479V671Q429 582 396 507T340 356T299 194T265 0H165Q202 146 257 290T384 580L414 628L362 623H150L111 521Z" />
<glyph unicode="8" glyph-name="eight" horiz-adv-x="533" d="M49 157Q49 191 61 221T94 276T145 320T210 351Q182 366 158 384T115 425T87 475T76 537Q76 576 90 608T129 663T191 699T273 712Q361 712 410 668T459 553Q459 495 421 452T322 380Q357 362 387 340T438
292T472 236T485 170Q485 133 471 100T428 42T358 3T262 -12Q207 -12 167 2T101 39T62 93T49 157ZM397 153Q397 187 384 214T348 263T296 303T235 336Q206 319 187 298T157 255T140 210T135 169Q135 145 142 121T166 77T207 46T270 34Q301 34 325 44T365 72T389
110T397 153ZM162 550Q162 519 173 496T204 455T247 421T298 393Q340 427 357 461T374 536Q374 598 347 631T271 665Q244 665 224 655T190 629T169 593T162 550Z" />
<glyph unicode="9" glyph-name="nine" horiz-adv-x="533" d="M47 487Q47 536 61 577T104 648T174 695T270 712Q328 712 370 693T441 638T482 553T495 441Q495 348 468 269T395 131T285 34T148 -12L130 17Q189 33 234 64T312 137T365 231T393 340Q370 316 339 300T253
283Q208 283 170 296T105 336T63 400T47 487ZM143 488Q143 459 152 432T178 383T219 348T273 335Q321 335 352 351T399 393Q401 406 401 425T401 456Q401 492 394 529T370 597T328 646T266 665Q206 665 175 618T143 488Z" />
<glyph unicode=":" glyph-name="colon" horiz-adv-x="327" d="M119 442Q119 472 138 490T187 508Q218 508 237 490T256 442Q256 413 237 395T187 377Q157 377 138 395T119 442ZM119 57Q119 87 138 105T187 123Q218 123 237 105T256 57Q256 28 237 10T187 -8Q157
-8 138 10T119 57Z" />
<glyph unicode=";" glyph-name="semicolon" horiz-adv-x="332" d="M124 442Q124 472 143 490T192 508Q223 508 242 490T261 442Q261 413 242 395T192 377Q162 377 143 395T124 442ZM104 -149Q123 -142 140 -128T169 -95T188 -56T193 -13Q181 -2 161 9T126 25Q121
44 125 62T139 94T159 116T182 126Q217 121 243 95T270 17Q270 -11 260 -41T231 -99T185 -147T124 -179L104 -149Z" />
<glyph unicode="&lt;" glyph-name="less" horiz-adv-x="533" d="M44 324V355L429 590L454 546L204 395L118 355L203 324L468 168L428 103L44 324Z" />
<glyph unicode="=" glyph-name="equal" horiz-adv-x="533" d="M42 450H492V397H42V450ZM42 546H492V493H42V546Z" />
<glyph unicode="&gt;" glyph-name="greater" horiz-adv-x="533" d="M490 369V338L105 103L81 147L331 298L417 338L332 369L67 525L106 590L490 369Z" />
<glyph unicode="?" glyph-name="question" horiz-adv-x="473" d="M127 519H102Q94 546 84 588T70 670Q108 693 151 702T258 712Q303 712 336 700T392 666T426 614T438 549Q438 504 422 471T381 410T327 360T273 310T232 253T215 180H195Q188 209 188 237Q188 273
199 300T228 351T265 394T302 436T330 482T342 539Q342 561 336 582T316 621T281 649T230 660Q198 660 178 655T150 642L127 519ZM143 57Q143 87 162 105T211 123Q242 123 261 105T280 57Q280 28 261 10T211 -8Q181 -8 162 10T143 57Z" />
<glyph unicode="@" glyph-name="at" horiz-adv-x="1064" d="M669 474Q706 491 744 490L693 204Q687 171 685 144T684 98T695 68T721 57Q754 57 789 75T853 129T902 214T921 326Q921 402 892 464T813 569T695 636T550 660Q458 660 385 628T259 539T179 406T151
242Q151 153 180 85T261 -31T386 -103T546 -128Q575 -128 612 -121T679 -100L695 -144Q660 -164 618 -172T525 -180Q439 -180 361 -154T224 -76T129 54T94 236Q94 345 130 433T228 583T375 678T555 712Q645 712 722 686T857 610T946 489T978 326Q978 261 956 203T895
101T806 31T701 5Q671 5 650 14T618 45T607 101T617 183H613Q602 151 583 120T538 63T485 21T427 5Q367 5 335 46T302 157Q302 221 323 282T381 391T466 468T567 497Q603 497 624 491T669 474ZM652 426Q636 436 620 441T577 446Q539 446 505 420T446 352T407 263T392
169Q392 121 407 94T464 67Q483 67 505 85T548 134T590 201T627 277L652 426Z" />
<glyph unicode="A" glyph-name="A" horiz-adv-x="683" d="M222 0H0V29Q36 45 72 53L325 712H354L607 53Q627 49 646 44T683 29V0H427V29Q447 37 468 43T509 53L441 236H202L136 53Q178 47 222 29V0ZM222 288H424L345 500L326 586H324L299 498L222 288Z" />
<glyph unicode="B" glyph-name="B" horiz-adv-x="615" d="M29 0V29Q69 48 111 53V646Q91 650 70 656T29 671V700H135Q154 700 171 701T208 703T249 705T299 706Q339 706 380 700T455 675T510 625T531 540Q531 514 523 488T499 440T457 400T398 375V371Q428 366
457 354T510 322T547 271T562 199Q562 145 538 106T476 42T388 6T289 -6Q254 -6 210 -3T125 0H29ZM296 46Q332 46 363 57T417 87T453 134T466 194Q466 234 451 260T409 302T348 324T276 330H201V54Q215 50 234 48T296 46ZM251 382Q268 382 291 383T330 387Q376
403 405 438T435 522Q435 588 396 621T290 654Q259 654 237 653T201 650V382H251Z" />
<glyph unicode="C" glyph-name="C" horiz-adv-x="644" d="M547 182H573Q578 154 582 112T584 29Q569 17 548 10T504 -3T456 -10T409 -12Q325 -12 259 9T148 75T78 187T53 350Q53 448 80 516T153 628T260 692T388 712Q454 712 499 704T578 678Q578 662 577 641T574
595T569 548T563 506H537L485 650Q474 656 449 658T398 660Q348 660 304 642T226 585T172 488T152 350Q152 279 170 222T222 124T305 62T416 40Q449 40 471 45T500 58L547 182Z" />
<glyph unicode="D" glyph-name="D" horiz-adv-x="708" d="M29 0V29Q64 45 111 53V646Q88 651 67 657T29 671V700H131Q148 700 171 701T218 703T265 706T303 708Q473 708 564 617T656 359Q656 280 634 213T565 96T449 19T282 -9Q267 -9 248 -8T208 -5T166 -2T125
0H29ZM289 656Q263 656 239 656T201 652V46Q206 45 219 45T247 44T275 43T295 43Q364 43 412 69T490 138T535 239T549 359Q549 408 536 460T492 556T411 628T289 656Z" />
<glyph unicode="E" glyph-name="E" horiz-adv-x="582" d="M503 700Q502 660 500 620T492 538H466L425 648H207V383H370L409 457H434Q440 358 434 255H409L370 331H207V52H437L486 172H511Q518 130 521 87T522 0H29V29Q64 45 111 53V646Q91 650 70 656T29 671V700H503Z" />
<glyph unicode="F" glyph-name="F" horiz-adv-x="544" d="M197 53Q241 47 283 29V0H29V29Q46 37 64 43T101 53V646Q79 651 61 657T29 671V700H498Q497 661 495 620T487 538H461L420 648H197V363H370L411 437H434Q436 414 437 389T438 337Q438 310 437 284T434
235H411L370 312H197V53Z" />
<glyph unicode="G" glyph-name="G" horiz-adv-x="688" d="M609 48Q590 37 565 27T511 8T454 -6T400 -12Q320 -12 256 9T147 75T78 188T53 350Q53 448 81 517T157 629T265 692T389 712Q455 712 500 704T580 678Q580 663 579 641T576 595T571 548T565 506H539L487
650Q476 656 450 658T399 660Q349 660 304 642T226 585T172 488T152 350Q152 279 171 222T225 125T306 62T407 40Q427 40 446 44T481 53T507 65T522 75V277Q496 279 473 286T426 301V330H671V301Q661 294 647 288T609 277V48Z" />
<glyph unicode="H" glyph-name="H" horiz-adv-x="728" d="M282 0H29V29Q69 45 111 53V646Q64 653 29 671V700H282V671Q265 662 246 656T207 646V385H521V646Q500 651 482 657T446 671V700H699V671Q681 661 660 656T617 646V53Q640 49 661 43T699 29V0H446V29Q482
45 521 53V333H207V53Q227 49 246 43T282 29V0Z" />
<glyph unicode="I" glyph-name="I" horiz-adv-x="352" d="M304 0H48V29Q87 47 128 53V646Q108 650 88 656T48 671V700H304V671Q286 663 265 657T224 646V53Q245 49 266 43T304 29V0Z" />
<glyph unicode="J" glyph-name="J" horiz-adv-x="341" d="M39 700H293V671Q275 663 256 657T217 646V86Q217 16 201 -29T162 -101T112 -142T63 -160L52 -145Q67 -132 79 -116T101 -74T116 -13T121 75V646Q99 651 78 657T39 671V700Z" />
<glyph unicode="K" glyph-name="K" horiz-adv-x="646" d="M382 700H603V671Q583 662 564 656T527 646L326 380Q351 347 383 306T451 222T524 134T598 49L646 25V0H521L487 24Q428 93 370 173T256 335H207V53Q253 45 282 29V0H29V29Q69 45 111 53V646Q66 652 29
671V700H282V671Q266 664 247 658T207 646V369L267 383L454 646Q434 651 416 657T382 671V700Z" />
<glyph unicode="L" glyph-name="L" horiz-adv-x="549" d="M29 700H303V671Q279 662 255 656T207 646V52H437L496 213H522Q525 192 527 165T531 108T533 50T532 0H29V29Q53 40 73 45T111 53V646Q88 650 67 656T29 671V700Z" />
<glyph unicode="M" glyph-name="M" horiz-adv-x="867" d="M837 0H589V29Q609 37 629 42T670 53V503L674 620H666L633 513L428 0H402L207 513L171 630H162L163 503V53Q182 49 201 43T239 29V0H30V29Q49 37 69 43T111 54V646Q90 650 70 656T29 671V700H234L408 243L442
140H443L477 245L657 700H838V671Q820 663 801 657T762 646V52Q783 48 801 43T837 29V0Z" />
<glyph unicode="N" glyph-name="N" horiz-adv-x="732" d="M487 700H703V671Q661 643 621 631V-12H564L201 539L162 617H159L168 539V64Q209 53 245 29V0H29V29Q47 40 67 48T111 64V637Q91 645 72 654T35 672V700H204L519 225L565 139H569L564 225V631Q543 640
524 650T487 671V700Z" />
<glyph unicode="O" glyph-name="O" horiz-adv-x="740" d="M53 350Q53 428 74 494T136 609T236 685T370 712Q445 712 504 685T603 610T665 495T687 350Q687 272 666 206T604 91T504 15T370 -12Q295 -12 236 15T137 90T75 205T53 350ZM160 350Q160 286 173 230T214
131T282 65T379 40Q430 40 468 64T530 131T567 229T580 350Q580 414 567 470T527 569T459 635T362 660Q307 660 269 636T206 569T171 471T160 350Z" />
<glyph unicode="P" glyph-name="P" horiz-adv-x="596" d="M207 53Q234 50 258 44T303 29V0H29V29Q49 39 70 44T111 53V646Q88 650 68 656T29 671V700H119Q159 700 206 704T296 708Q345 708 392 698T475 662T534 596T557 492Q557 433 534 391T473 322T385 283T284
270Q279 270 269 270T246 270T223 272T207 274V53ZM275 656Q251 656 236 655T207 651V327Q212 325 221 325T241 323T262 322T278 322Q313 322 344 331T398 362T436 415T450 492Q450 574 404 615T275 656Z" />
<glyph unicode="Q" glyph-name="Q" horiz-adv-x="740" d="M760 -115Q720 -151 678 -176T588 -201Q547 -201 502 -186T406 -150T298 -106T173 -66L203 -46Q225 -43 246 -43Q296 -43 344 -55T442 -81T541 -107T643 -119Q670 -119 698 -115T755 -101L760 -115ZM53
350Q53 428 74 494T136 609T236 685T370 712Q445 712 504 685T603 610T665 495T687 350Q687 272 666 206T604 91T504 15T370 -12Q295 -12 236 15T137 90T75 205T53 350ZM160 350Q160 286 173 230T214 131T282 65T379 40Q430 40 468 64T530 131T567 229T580 350Q580
414 567 470T527 569T459 635T362 660Q307 660 269 636T206 569T171 471T160 350Z" />
<glyph unicode="R" glyph-name="R" horiz-adv-x="637" d="M207 53Q230 48 251 43T292 29V0H29V29Q51 39 71 44T111 53V646Q85 651 65 657T29 671V700H117Q157 700 204 704T297 708Q346 708 388 697T462 662T510 601T528 512Q528 439 490 391T385 322Q428 254 475
187T573 54L627 25V0H506L468 28Q440 63 417 96T374 164T337 234T301 310H207V53ZM275 656Q251 656 236 655T207 651V352H279Q348 352 388 396T429 512Q429 586 386 621T275 656Z" />
<glyph unicode="S" glyph-name="S" horiz-adv-x="536" d="M150 69Q162 57 181 49T238 40Q270 40 298 48T346 73T379 113T391 167Q391 207 367 234T306 282T226 323T147 370T86 436T61 533Q61 575 76 608T118 664T184 699T269 712Q330 712 380 703T460 679Q460
662 458 640T452 593T444 547T436 507H410L370 644Q352 652 325 656T266 660Q215 660 184 632T153 552Q153 511 177 483T239 433T318 391T398 343T459 279T484 187Q484 142 468 105T420 42T344 2T242 -12Q179 -12 129 3T58 35Q59 52 61 76T67 125T75 175T83 216H109L150
69Z" />
<glyph unicode="T" glyph-name="T" horiz-adv-x="619" d="M450 0H169V29Q191 37 213 43T262 53V648H109L56 505H31Q28 525 26 550T23 602T20 654T19 700H600Q600 680 599 655T597 604T594 552T589 505H563L511 648H358V53Q384 48 406 43T450 29V0Z" />
<glyph unicode="U" glyph-name="U" horiz-adv-x="672" d="M10 700H264V671Q245 663 226 657T188 646V237Q188 184 199 149T233 92T287 61T361 51Q440 51 484 94T528 238V637Q505 645 485 653T449 671V700H662V671Q643 660 624 651T584 637V236Q584 172 567 126T520
50T446 6T349 -9Q224 -9 158 47T92 221V646Q51 652 10 671V700Z" />
<glyph unicode="V" glyph-name="V" horiz-adv-x="684" d="M545 646Q521 651 500 657T459 671V700H684V671Q655 655 612 646L386 0L331 -12L76 646Q56 651 37 657T0 671V700H265V671Q248 664 227 658T183 646L354 189L375 109H377L397 191L545 646Z" />
<glyph unicode="W" glyph-name="W" horiz-adv-x="934" d="M796 646Q775 649 754 655T710 671V700H934V671Q900 656 862 646L695 0L633 -12L472 532L314 0L253 -12L76 646Q56 651 37 657T0 671V700H260V671Q241 664 221 658T178 646L277 243L299 113H301L336 245L471
700H505L650 245L679 115H681L704 247L796 646Z" />
<glyph unicode="X" glyph-name="X" horiz-adv-x="670" d="M395 700H625V671Q608 664 589 658T550 646L374 375L579 53Q627 45 661 29V0H395V29Q431 47 471 53L313 304L161 52Q182 49 202 45T241 29V0H10V29Q29 39 47 44T84 53L280 352L92 646Q72 652 53 658T13
671V700H278V671Q263 665 245 659T202 646L342 420L478 646Q437 655 395 671V700Z" />
<glyph unicode="Y" glyph-name="Y" horiz-adv-x="644" d="M424 700H644V671Q606 652 568 646L379 298V53Q418 48 455 29V0H201V29Q237 47 283 53V297L81 646Q58 650 39 656T0 671V700H265V671Q250 665 231 659T188 646L352 352L506 646Q483 651 463 657T424 671V700Z" />
<glyph unicode="Z" glyph-name="Z" horiz-adv-x="610" d="M533 192H559Q562 172 564 147T568 96T570 45T570 0H39V51L455 648H147L86 508H61Q58 529 56 554T52 605T50 655T49 700H560V648L146 52H472L533 192Z" />
<glyph unicode="[" glyph-name="bracketleft" horiz-adv-x="307" d="M83 700H272V658H168V-189H272V-230H83V700Z" />
<glyph unicode="\" glyph-name="backslash" horiz-adv-x="382" d="M409 -107L368 -130L-47 690L-5 712L409 -107Z" />
<glyph unicode="]" glyph-name="bracketright" horiz-adv-x="307" d="M224 -230H35V-189H139V658H35V700H224V-230Z" />
<glyph unicode="^" glyph-name="asciicircum" horiz-adv-x="500" d="M233 711H265L435 434H347L259 585L235 652L203 584L103 434H47L233 711Z" />
<glyph unicode="_" glyph-name="underscore" horiz-adv-x="410" d="M0 -143H410V-196H0V-143Z" />
<glyph unicode="`" glyph-name="grave" horiz-adv-x="328" d="M268 593L246 576L60 725V745Q66 750 79 754T109 762T139 766T162 767L268 593Z" />
<glyph unicode="a" glyph-name="a" horiz-adv-x="505" d="M410 131Q410 109 411 93T413 59L482 49V28Q457 15 427 5T368 -10H343Q333 13 331 40T328 101H323Q319 81 308 61T278 24T234 -2T177 -12Q116 -12 78 25T39 122Q39 168 57 197T112 244T201 268T324 280Q328
323 327 357T316 416T288 454T239 468Q225 468 208 467T173 458L126 338H100Q90 368 83 400T73 463Q111 486 157 499T261 512Q312 512 342 498T389 460T410 409T415 353Q415 293 413 238T410 131ZM217 50Q242 50 261 60T293 84T314 112T325 137V242Q267 242 230
236T172 217T143 185T135 140Q135 97 157 74T217 50Z" />
<glyph unicode="b" glyph-name="b" horiz-adv-x="545" d="M77 682L1 690V716Q32 729 70 737T142 752H167V401H169Q186 452 226 482T316 512Q407 512 455 450T504 259Q504 127 438 59T246 -9Q221 -9 196 -6T148 3T107 15T77 29V682ZM289 450Q241 450 211 418T167
335V56Q185 46 211 41T266 35Q332 35 370 92T408 259Q408 298 402 333T381 394T344 435T289 450Z" />
<glyph unicode="c" glyph-name="c" horiz-adv-x="466" d="M427 70Q409 35 369 12T274 -12Q215 -12 172 6T99 59T56 142T41 250Q41 377 103 444T272 512Q321 512 359 504T425 481Q422 448 414 407T394 339H367L325 458Q318 463 309 465T279 468Q211 468 174 419T137
251Q137 213 147 177T179 113T233 67T309 50Q344 50 370 60T414 84L427 70Z" />
<glyph unicode="d" glyph-name="d" horiz-adv-x="555" d="M373 99Q368 77 356 57T327 22T287 -3T238 -12Q139 -12 90 51T41 247Q41 375 103 442T272 509Q309 509 330 506T376 493V682L300 690V716Q329 728 367 737T441 752H466V57L532 49V28Q503 14 472 4T411
-10H386L377 99H373ZM258 50Q307 50 336 81T376 165V447Q359 457 336 461T277 465Q209 465 173 406T137 247Q137 206 144 171T166 108T203 66T258 50Z" />
<glyph unicode="e" glyph-name="e" horiz-adv-x="503" d="M446 70Q438 53 421 38T382 12T334 -5T281 -12Q222 -12 177 6T102 59T57 142T41 250Q41 378 100 445T267 512Q302 512 336 503T396 471T439 413T456 322Q456 305 455 288T449 250H137Q137 208 147 172T179
108T232 66T307 50Q342 50 378 60T432 86L446 70ZM263 468Q206 468 176 430T140 294H360Q361 303 361 311T362 328Q362 392 338 430T263 468Z" />
<glyph unicode="f" glyph-name="f" horiz-adv-x="342" d="M306 752Q315 752 327 751T352 749T377 745T398 739Q395 706 390 678T376 626H351L307 712Q278 712 258 706T224 683T204 634T197 550V500H312V450H197V49Q249 43 293 25V0H41V25Q72 43 107 49V450H31V476Q66
498 107 509V544Q107 606 122 646T164 710T227 743T306 752Z" />
<glyph unicode="g" glyph-name="g" horiz-adv-x="526" d="M247 512Q301 512 338 502T400 469Q459 509 523 527Q531 516 534 500T538 470L525 446H420Q445 410 445 351Q445 279 395 234T247 189Q228 189 216 190T189 193Q184 184 178 173T171 150Q171 130 194 119T251
98T326 80T402 54T460 11T485 -58Q486 -94 469 -123T420 -171T346 -201T250 -212Q141 -212 86 -175T30 -82Q30 -55 38 -35T63 0T103 26T158 48Q136 58 122 75T107 118Q107 141 126 163T166 199Q109 214 79 256T48 351Q48 385 61 414T99 466T161 500T247 512ZM395
-81Q395 -49 374 -30T320 1T251 21T182 39Q144 16 132 -9T120 -62Q120 -115 158 -141T268 -168Q305 -168 329 -161T368 -143T389 -115T395 -81ZM138 351Q138 327 143 306T161 268T195 243T247 233Q305 233 330 267T355 351Q355 405 331 436T247 468Q186 468 162
438T138 351Z" />
<glyph unicode="h" glyph-name="h" horiz-adv-x="587" d="M570 0H354V25Q378 38 414 49V283Q414 361 392 405T312 450Q286 450 265 441T227 416T198 382T180 341V49Q196 45 210 40T239 25V0H24V25Q55 41 90 49V682L14 690V716Q43 728 81 737T155 752H180V399H181Q202
446 241 479T337 512Q377 512 408 503T461 469T493 405T504 302V49Q521 45 538 40T570 25V0Z" />
<glyph unicode="i" glyph-name="i" horiz-adv-x="301" d="M263 0H41V25Q56 33 72 38T107 49V442L41 450V476Q70 488 104 497T172 512H197V49Q217 44 233 39T263 25V0ZM88 670Q88 697 105 713T152 729Q181 729 198 713T215 670Q215 643 198 628T152 612Q123 612
106 627T88 670Z" />
<glyph unicode="j" glyph-name="j" horiz-adv-x="288" d="M106 442L40 450V476Q69 490 103 498T171 512H196V43Q196 -28 178 -75T136 -151T87 -194T47 -212L35 -193Q47 -187 59 -172T82 -131T99 -66T106 24V442ZM87 670Q87 697 104 713T151 729Q180 729 197 713T214
670Q214 643 197 628T151 612Q122 612 105 627T87 670Z" />
<glyph unicode="k" glyph-name="k" horiz-adv-x="516" d="M300 500H493V474Q474 466 456 460T417 450Q402 430 383 407T343 361T305 318T273 285Q288 265 309 237T356 176T407 111T460 49L516 25V0H392L365 24Q312 90 277 141T213 238L180 248V49Q213 43 245 25V0H24V25Q57
41 90 49V682L14 690V716Q42 729 81 737T155 752H180V274H206Q222 292 241 314T279 359T316 406T349 450Q324 457 300 474V500Z" />
<glyph unicode="l" glyph-name="l" horiz-adv-x="301" d="M263 0H41V25Q74 41 107 49V682L31 690V716Q57 728 96 737T172 752H197V49Q230 41 263 25V0Z" />
<glyph unicode="m" glyph-name="m" horiz-adv-x="863" d="M548 0H334V25Q344 31 358 37T393 49V280Q393 320 390 352T377 405T349 438T302 450Q280 450 262 441T229 417T204 383T187 343V49Q203 44 217 39T246 25V0H31V25Q45 32 62 38T97 49V442L31 450V476Q63
490 96 498T162 512H187V399H188Q204 446 242 479T338 512Q362 512 384 507T425 489T457 451T476 389Q494 444 534 478T634 512Q671 512 698 503T744 469T770 404T779 300V49Q813 43 845 25V0H630V25Q660 41 689 49V298Q689 334 686 362T672 409T644 439T596 450Q548
450 522 417T483 333V49Q518 39 548 25V0Z" />
<glyph unicode="n" glyph-name="n" horiz-adv-x="594" d="M577 0H362V25Q389 39 421 49V286Q421 362 399 406T319 450Q294 450 273 441T235 417T206 382T187 341V49Q218 43 247 25V0H31V25Q56 38 97 49V442L31 450V476Q57 487 91 496T162 512H187V400H188Q209
446 248 479T344 512Q384 512 415 503T468 469T500 405T511 302V49Q551 42 577 25V0Z" />
<glyph unicode="o" glyph-name="o" horiz-adv-x="553" d="M41 250Q41 313 57 361T105 443T179 494T276 512Q338 512 383 493T456 440T498 357T512 250Q512 124 448 56T276 -12Q216 -12 172 6T99 59T56 142T41 250ZM137 250Q137 205 145 165T172 96T221 49T293
32Q347 32 381 85T416 250Q416 296 408 335T381 404T335 451T268 468Q209 468 173 415T137 250Z" />
<glyph unicode="p" glyph-name="p" horiz-adv-x="566" d="M253 -200H31V-175Q65 -159 97 -151V442L31 450V476Q63 490 96 498T162 512H187V400H188Q208 451 244 481T338 512Q427 512 476 453T525 261Q525 198 509 147T462 61T388 7T291 -12Q254 -12 233 -8T187
8V-151Q203 -153 219 -158T253 -175V-200ZM306 450Q257 450 228 419T187 334V54Q205 43 227 38T286 32Q319 32 345 49T390 97T419 169T429 261Q429 302 423 336T402 396T364 436T306 450Z" />
<glyph unicode="q" glyph-name="q" horiz-adv-x="548" d="M372 89Q358 49 323 19T234 -12Q138 -12 90 51T41 247Q41 377 105 443T291 509Q345 509 394 499T466 478V-151Q483 -154 499 -159T532 -175V-200H310V-175Q341 -159 376 -151V89H372ZM258 50Q307 50 335
81T376 164V451Q358 457 334 461T277 465Q210 465 174 413T137 249Q137 207 143 171T163 108T201 66T258 50Z" />
<glyph unicode="r" glyph-name="r" horiz-adv-x="384" d="M244 425Q233 419 217 401T187 346V49Q207 47 227 42T267 25V0H31V25Q49 35 65 40T97 49V442L31 450V476Q63 490 97 498T162 512H187V406H191Q200 426 216 446T254 482T301 506T354 512Q361 499 366 484T377
451V425H244Z" />
<glyph unicode="s" glyph-name="s" horiz-adv-x="433" d="M295 114Q295 142 278 161T233 198T176 231T118 268T74 318T56 387Q56 414 68 437T102 476T151 502T211 512Q265 512 299 506T366 489Q362 457 357 425T341 358H316L278 460Q266 465 251 466T220 468Q202
468 189 462T166 445T151 422T146 396Q146 369 163 350T208 314T265 281T323 245T367 199T385 135Q385 101 371 74T331 28T272 -1T200 -12Q157 -12 121 -5T46 17Q48 53 55 86T73 151H98L142 42Q153 34 168 33T197 32Q241 32 268 56T295 114Z" />
<glyph unicode="t" glyph-name="t" horiz-adv-x="371" d="M15 476Q53 500 95 510V595Q108 606 125 614T160 631H185V500H335V450H185V160Q185 100 204 75T261 50Q279 50 306 52T352 62L359 47Q351 38 337 28T304 9T263 -6T218 -12Q158 -12 127 22T95 132V450H15V476Z" />
<glyph unicode="u" glyph-name="u" horiz-adv-x="574" d="M77 198Q77 261 80 321T83 442L17 450V476Q49 488 82 497T148 512H173Q173 437 170 363T167 216Q167 177 171 146T187 94T219 62T270 50Q315 50 345 82T393 167V442L328 450V476Q359 488 392 497T458 512H483V57L549
49V28Q520 15 491 5T429 -10H404L397 109H393Q388 88 376 67T343 28T298 -1T242 -12Q202 -12 172 -3T120 31T88 95T77 198Z" />
<glyph unicode="v" glyph-name="v" horiz-adv-x="507" d="M238 -12L43 450Q14 460 -10 474V500H199V475Q186 468 173 462T142 450L258 149L278 87H280L295 150L402 450Q386 454 373 460T347 474V500H517V474Q507 467 493 461T460 450L283 0L238 -12Z" />
<glyph unicode="w" glyph-name="w" horiz-adv-x="728" d="M200 -12L43 450Q29 455 16 460T-10 474V500H198V475Q184 467 170 461T141 450L228 158L241 86H243L258 160L366 490L396 500L511 159L529 86H531L546 159L623 450Q612 452 598 458T568 474V500H738V474Q717
460 681 450L539 0L486 -12L387 271L368 354H365L342 271L252 0L200 -12Z" />
<glyph unicode="x" glyph-name="x" horiz-adv-x="519" d="M298 268L456 49Q470 44 483 39T509 25V0H304V24Q318 32 330 38T354 49L243 213L131 49Q145 44 157 38T181 25V0H10V25Q38 42 66 49L215 248L65 450Q51 455 40 460T16 474V500H217V475Q205 467 194 461T168
450L272 300L374 450Q340 461 324 474V500H491V474Q472 461 435 450L298 268Z" />
<glyph unicode="y" glyph-name="y" horiz-adv-x="505" d="M42 450Q27 454 15 460T-11 474V500H198V475Q177 461 141 450L269 154L288 92H290L305 155L400 450Q370 456 345 474V500H516V474Q495 460 459 450L303 0Q279 -64 258 -103T215 -166T171 -199T122 -215Q111
-196 103 -173T88 -129L101 -105H205Q211 -97 215 -90T225 -71T236 -43T250 0L42 450Z" />
<glyph unicode="z" glyph-name="z" horiz-adv-x="488" d="M423 171Q430 129 433 87T435 0H43V25L328 456H139L95 338H70Q62 381 61 422T59 500H435V474L149 44H344L398 171H423Z" />
<glyph unicode="{" glyph-name="braceleft" horiz-adv-x="348" d="M135 111Q135 162 114 191T55 220V250Q93 250 114 280T135 355V594Q135 642 159 671T231 700H321V658H273Q246 658 234 644T221 598V365Q221 332 211 309T184 272T148 250T111 240V234Q128 232
147 224T183 200T210 161T221 105V-129Q221 -160 233 -174T274 -189H321V-230H231Q186 -230 161 -204T135 -125V111Z" />
<glyph unicode="|" glyph-name="bar" horiz-adv-x="237" d="M93 700H145V-130H93V700Z" />
<glyph unicode="}" glyph-name="braceright" horiz-adv-x="348" d="M238 360Q238 309 259 280T318 251V221Q280 221 259 191T238 116V-124Q238 -172 214 -201T142 -230H52V-189H101Q128 -189 140 -175T153 -129V106Q153 139 162 162T185 199T217 221T253 231V237Q236
239 218 247T186 271T162 310T153 366V598Q153 629 141 643T100 658H52V700H143Q188 700 213 674T238 595V360Z" />
<glyph unicode="~" glyph-name="asciitilde" horiz-adv-x="530" d="M58 322Q94 376 127 396T190 417Q215 417 239 407T286 383T332 360T381 349Q399 349 418 356T458 383L471 362Q442 320 414 303T358 285Q332 285 308 295T259 319T211 342T163 353Q141 353 119
341T73 298L58 322Z" />
<glyph unicode="&#xa0;" glyph-name="uni00A0" horiz-adv-x="243" />
<glyph unicode="&#xa1;" glyph-name="exclamdown" horiz-adv-x="327" d="M153 286L185 110V-186Q164 -197 140 -197T95 -186V110L127 286H153ZM208 446Q208 417 189 399T140 381Q109 381 90 399T71 446Q71 476 90 494T140 512Q170 512 189 494T208 446Z" />
<glyph unicode="&#xa2;" glyph-name="cent" horiz-adv-x="533" d="M480 70Q460 34 420 12T326 -12V-170H273V-8Q168 7 115 75T62 250Q62 305 77 349T121 427T187 480T273 508V660H326V512Q374 512 412 504T478 481Q475 448 467 407T446 339H421L380 458Q373 463
364 465T335 468H325V53Q343 50 361 50Q396 50 422 60T466 84L480 70ZM158 251Q158 194 187 143T274 67V460Q221 444 190 394T158 251Z" />
<glyph unicode="&#xa3;" glyph-name="sterling" horiz-adv-x="533" d="M30 381H115Q100 413 89 448T78 534Q78 575 93 608T135 664T200 699T285 712Q346 712 397 702T477 678Q476 662 474 640T468 594T460 547T452 507H427L387 644Q368 652 341 656T283 660Q244
660 217 643T178 595Q170 573 170 549Q171 498 183 458T209 381H365V330H227Q234 305 238 281T240 227Q239 193 227 162T186 108L153 80V76L209 82H408L457 194H482Q484 172 486 146T489 94T492 43T493 0H33V31Q97 59 128 98T161 198Q161 209 161 218T159 238Q153
292 138 330H30V381Z" />
<glyph unicode="&#xa4;" glyph-name="currency" horiz-adv-x="533" d="M36 170L119 252L154 263Q140 280 134 301T128 346Q128 369 134 390T154 429L119 440L37 523L91 577L173 494L185 460Q202 473 222 480T267 487Q291 486 312 480T349 460L362 494L444 576L497
522L414 440L382 429Q405 395 405 346Q406 299 382 262L414 252L496 169L443 115L361 197L349 231Q333 220 312 214T267 207Q243 207 223 213T183 231L173 198L90 116L36 170ZM267 264Q303 264 327 287T352 346Q352 382 328 405T267 429Q231 430 207 406T182 346Q182
310 206 287T267 264Z" />
<glyph unicode="&#xa5;" glyph-name="yen" horiz-adv-x="533" d="M359 700H579V671Q539 652 503 646L343 335H487V283H324V220H487V168H324V53Q363 48 400 29V0H146V29Q182 47 228 53V168H65V220H228V283H65V335H207L36 646Q13 650 -6 656T-45 671V700H220V671Q205
665 186 659T143 646L297 351L441 646Q418 651 398 657T359 671V700Z" />
<glyph unicode="&#xa6;" glyph-name="brokenbar" horiz-adv-x="237" d="M93 190H145V-130H93V190ZM145 380H93V700H145V380Z" />
<glyph unicode="&#xa7;" glyph-name="section" horiz-adv-x="527" d="M347 44Q347 74 326 92T272 123T203 149T134 180T81 228T59 304Q59 354 97 390T190 449Q169 459 151 471T120 499T98 537T90 587Q90 614 102 637T135 676T187 702T254 712Q308 712 347 707T418
689Q416 673 414 662T409 639T402 616T393 588H368L312 660Q300 665 290 666T263 668Q220 668 200 645T180 596Q180 566 201 547T255 512T324 484T393 451T446 405T468 337Q468 308 456 285T425 242T383 209T339 184Q359 175 377 165T408 140T429 109T437 68Q437
-2 384 -42T242 -82Q159 -82 80 -53Q81 -35 83 -23T89 1T96 24T105 52H130L194 -27Q205 -36 215 -37T240 -38Q288 -38 317 -14T347 44ZM378 313Q378 337 366 354T334 384T289 407T236 429Q202 413 176 386T149 326Q149 300 161 281T194 248T240 223T294 202Q311
212 326 226T352 254T371 284T378 313Z" />
<glyph unicode="&#xa8;" glyph-name="dieresis" horiz-adv-x="450" d="M60 663Q60 687 75 701T114 716Q138 716 153 702T168 663Q168 640 153 626T114 612Q90 612 75 626T60 663ZM282 663Q282 687 297 701T336 716Q360 716 375 702T390 663Q390 640 375 626T336
612Q312 612 297 626T282 663Z" />
<glyph unicode="&#xa9;" glyph-name="copyright" horiz-adv-x="807" d="M51 290Q51 373 80 438T159 549T271 618T404 642Q473 642 536 618T648 549T726 439T756 290Q756 207 727 142T649 31T537 -38T404 -62Q332 -62 268 -38T155 31T79 141T51 290ZM103 290Q103
221 126 165T191 69T287 7T404 -15Q466 -15 521 7T616 68T680 164T704 290Q704 359 679 415T613 511T517 573T404 595Q338 595 283 573T188 511T126 415T103 290ZM510 206H535Q539 191 541 161T540 106Q531 99 518 95T489 87T458 83T429 82Q380 82 340 95T270 135T224
201T207 291Q207 343 225 382T273 447T340 486T416 500Q455 500 486 495T537 479Q538 470 538 456T537 425T534 394T529 369H504L474 452Q467 457 452 457T423 458Q366 458 335 414T303 291Q303 258 310 228T332 174T373 137T433 123Q453 123 465 127T482 135L510
206Z" />
<glyph unicode="&#xaa;" glyph-name="ordfeminine" horiz-adv-x="430" d="M99 605Q89 616 82 635T74 676Q99 689 135 698T234 708Q298 708 321 682T345 607Q345 588 345 566T344 521T343 479T342 442L392 432V406Q373 395 352 388T307 378H290Q283 395 281 411T277
445H273Q268 436 259 424T236 402T201 384T154 376Q108 376 79 401T49 471Q49 502 64 521T107 552T169 567T245 572Q252 572 258 572T272 571Q273 577 273 587T273 603Q273 616 270 628T259 649T238 664T202 670Q190 670 176 668T148 661L126 605H99ZM182 422Q203
422 218 429T243 445T261 466T272 486V538Q261 539 251 539T231 539Q211 539 193 536T160 525T138 505T129 476Q129 456 142 439T182 422Z" />
<glyph unicode="&#xab;" glyph-name="guillemotleft" horiz-adv-x="471" d="M218 259L387 464L412 445L306 266L418 77L394 57L218 259ZM24 259L237 466L263 446L123 265L269 76L243 55L24 259Z" />
<glyph unicode="&#xac;" glyph-name="logicalnot" horiz-adv-x="510" d="M43 387H468V198H406V324H43V387Z" />
<glyph unicode="&#xad;" glyph-name="uni00AD" horiz-adv-x="425" d="M71 313H353V250H71V313Z" />
<glyph unicode="&#xae;" glyph-name="registered" horiz-adv-x="700" d="M83 451Q83 515 104 564T162 648T247 699T350 717Q406 717 454 700T539 648T596 565T617 451Q617 386 596 337T538 253T453 202T350 184Q294 184 246 201T161 253T104 336T83 451ZM130 451Q130
399 147 358T195 287T265 242T350 226Q397 226 437 241T507 286T553 356T570 451Q570 503 553 544T505 615T435 660T350 675Q302 676 262 660T193 615T147 545T130 451ZM316 342Q329 341 337 339T353 333V309H229V333Q246 339 264 342V575Q253 576 245 578T229
586V608H267Q285 608 310 610T351 612Q373 612 393 608T430 593T455 566T464 528Q464 497 443 479T393 452Q411 423 427 396T473 342L496 330V309H446L418 320Q393 350 378 382T352 443H316V342ZM346 580Q335 580 329 580T316 577V472H348Q408 472 406 528Q405
554 389 567T346 580Z" />
<glyph unicode="&#xaf;" glyph-name="overscore" horiz-adv-x="373" d="M60 637V689H313V637H60Z" />
<glyph unicode="&#xb0;" glyph-name="degree" horiz-adv-x="424" d="M83 571Q83 602 94 628T124 672T170 701T225 712Q254 712 280 703T325 677T355 633T366 571Q366 538 355 512T325 468T280 440T225 430Q196 430 170 439T125 467T94 512T83 571ZM139 571Q139
530 164 505T225 479Q263 479 287 503T311 571Q311 613 287 638T225 663Q187 663 163 638T139 571Z" />
<glyph unicode="&#xb1;" glyph-name="plusminus" horiz-adv-x="533" d="M42 490H240V700H293V490H491V437H293V283H240V437H42V490ZM42 230H491V177H42V230Z" />
<glyph unicode="&#xb2;" glyph-name="twosuperior" horiz-adv-x="431" d="M109 639H86Q79 649 72 666T57 702T46 738T40 765Q72 783 115 798T209 813Q253 813 282 804T328 779T353 742T360 697Q360 664 344 631T298 565T228 503T139 448V442L170 449H307L351 516H373Q375
502 376 485T379 449T381 414T382 386H43V419Q84 442 125 473T200 541T255 614T276 684Q276 722 259 743T192 765Q154 765 129 750L109 639Z" />
<glyph unicode="&#xb3;" glyph-name="threesuperior" horiz-adv-x="431" d="M207 423Q232 423 249 430T277 448T293 472T298 499Q298 542 274 560T194 578H161V604L247 713L291 755V757L229 753H140L104 661H82Q76 674 71 693T63 734T57 774T54 804H361V768L270
662L231 622V621L262 625Q286 625 307 618T345 596T372 559T382 508Q382 443 331 410T195 377Q154 377 112 390T43 423L77 515H95Q100 510 106 500T119 479T132 455T144 433Q153 430 168 427T207 423Z" />
<glyph unicode="&#xb4;" glyph-name="acute" horiz-adv-x="329" d="M177 767Q185 768 198 767T225 762T251 755T269 745V726L82 575L60 593L177 767Z" />
<glyph unicode="&#xb5;" glyph-name="mu" horiz-adv-x="574" d="M134 15L169 -175V-200Q121 -214 77 -200V442L17 450V476Q49 488 82 497T148 512H173Q173 437 170 363T167 216Q167 177 171 146T187 94T219 62T270 50Q315 50 346 82T394 167V442L328 450V476Q359
488 393 497T459 512H484V57L550 49V28Q521 15 491 5T429 -10H404L397 109H393Q388 88 376 67T344 28T299 -1T243 -12Q211 -12 186 -6T140 15H134Z" />
<glyph unicode="&#xb6;" glyph-name="paragraph" horiz-adv-x="511" d="M376 94Q375 27 366 -15T340 -83T300 -121T247 -139Q227 -171 201 -187T148 -212L136 -192Q158 -183 177 -168T209 -127T230 -65T238 24V310Q206 310 175 320T118 352T76 411T60 500Q60 542
72 578T109 642T172 684T261 700H451V670Q434 662 417 656T376 646V94ZM259 -116Q301 -99 315 -47T329 94V651H285V24Q285 -16 279 -53T259 -116Z" />
<glyph unicode="&#xb7;" glyph-name="middot" horiz-adv-x="240" d="M53 307Q53 337 72 355T121 373Q152 373 171 355T190 307Q190 278 171 260T121 242Q91 242 72 260T53 307Z" />
<glyph unicode="&#xb8;" glyph-name="cedilla" horiz-adv-x="284" d="M117 -68Q172 -70 197 -88T223 -139Q224 -168 209 -189T169 -225T116 -245T60 -251V-221Q98 -216 121 -201T143 -155Q143 -130 123 -119T61 -105L98 1H143L117 -68Z" />
<glyph unicode="&#xb9;" glyph-name="onesuperior" horiz-adv-x="431" d="M365 386H85V407Q112 418 136 427T186 441V688L190 733Q166 726 137 724T78 722V751Q120 760 159 776T234 813H265V441Q291 435 316 427T365 407V386Z" />
<glyph unicode="&#xba;" glyph-name="ordmasculine" horiz-adv-x="435" d="M43 542Q43 581 56 612T92 665T147 700T217 712Q255 712 287 702T342 670T378 617T391 542Q391 503 378 472T342 418T287 384T217 372Q179 372 148 382T93 414T56 467T43 542ZM127 542Q127
482 150 446T217 409Q307 409 307 542Q307 674 217 674Q127 674 127 542Z" />
<glyph unicode="&#xbb;" glyph-name="guillemotright" horiz-adv-x="471" d="M77 57L53 77L165 261L58 445L83 464L253 259L77 57ZM228 55L202 76L347 260L207 446L233 466L446 259L228 55Z" />
<glyph unicode="&#xbc;" glyph-name="onequarter" horiz-adv-x="938" d="M603 282H323V303Q350 314 374 323T424 337V584L428 629Q404 622 375 620T316 618V647Q358 656 397 672T472 709H503V337Q529 331 554 323T603 303V282ZM753 710L788 679L203 -7L169 25L753
710ZM836 0H625V21Q642 29 660 35T698 45V117H454V141L741 427H777V164H871V117H777V45Q791 42 805 37T836 21V0ZM698 294L708 337H705L670 294L559 180L523 157L586 164H698V294Z" />
<glyph unicode="&#xbd;" glyph-name="onehalf" horiz-adv-x="1004" d="M603 282H323V303Q350 314 374 323T424 337V584L428 629Q404 622 375 620T316 618V647Q358 656 397 672T472 709H503V337Q529 331 554 323T603 303V282ZM753 710L788 679L203 -7L169 25L753
710ZM662 253H639Q632 263 625 280T610 316T599 352T593 379Q625 397 668 412T762 427Q806 427 835 418T881 393T906 356T913 311Q913 278 897 245T851 179T781 117T692 62V56L723 63H860L904 130H926Q928 116 929 99T932 63T934 28T935 0H596V33Q637 56 678 87T753
155T808 228T829 298Q829 336 812 357T745 379Q707 379 682 364L662 253Z" />
<glyph unicode="&#xbe;" glyph-name="threequarters" horiz-adv-x="991" d="M805 710L840 679L255 -7L221 25L805 710ZM888 0H677V21Q694 29 712 35T750 45V117H506V141L793 427H829V164H923V117H829V45Q843 42 857 37T888 21V0ZM750 294L760 337H757L722 294L611
180L575 157L638 164H750V294ZM232 319Q257 319 274 326T302 344T318 368T323 395Q323 438 299 456T219 474H186V500L272 609L316 651V653L254 649H165L129 557H107Q101 570 96 589T88 630T82 670T79 700H386V664L295 558L256 518V517L287 521Q311 521 332 514T370
492T397 455T407 404Q407 339 356 306T220 273Q179 273 137 286T68 319L102 411H120Q125 406 131 396T144 375T157 351T169 329Q178 326 193 323T232 319Z" />
<glyph unicode="&#xbf;" glyph-name="questiondown" horiz-adv-x="473" d="M346 -15H371Q379 -42 389 -84T403 -166Q365 -189 322 -198T215 -208Q170 -208 137 -196T81 -162T47 -110T35 -45Q35 0 51 33T92 94T146 144T200 193T241 250T258 323H278Q290 275 284
240T262 176T223 125T180 78T145 27T131 -35Q131 -57 137 -78T156 -117T191 -145T243 -156Q275 -156 295 -151T323 -138L346 -15ZM330 446Q330 417 312 399T263 381Q232 381 213 399T194 446Q194 476 213 494T263 512Q293 512 311 494T330 446Z" />
<glyph unicode="&#xc0;" glyph-name="Agrave" horiz-adv-x="683" d="M222 0H0V29Q36 45 72 53L325 712H354L607 53Q627 49 646 44T683 29V0H427V29Q447 37 468 43T509 53L441 236H202L136 53Q178 47 222 29V0ZM222 288H424L345 500L326 586H324L299 498L222 288ZM370
769L352 750L127 841V861Q133 868 146 874T174 885T203 892T225 893L370 769Z" />
<glyph unicode="&#xc1;" glyph-name="Aacute" horiz-adv-x="683" d="M222 0H0V29Q36 45 72 53L325 712H354L607 53Q627 49 646 44T683 29V0H427V29Q447 37 468 43T509 53L441 236H202L136 53Q178 47 222 29V0ZM222 288H424L345 500L326 586H324L299 498L222 288ZM451
893Q460 894 474 892T502 886T529 875T548 861V841L322 750L305 769L451 893Z" />
<glyph unicode="&#xc2;" glyph-name="Acircumflex" horiz-adv-x="683" d="M222 0H0V29Q36 45 72 53L325 712H354L607 53Q627 49 646 44T683 29V0H427V29Q447 37 468 43T509 53L441 236H202L136 53Q178 47 222 29V0ZM222 288H424L345 500L326 586H324L299 498L222
288ZM216 752L202 771L329 883Q334 886 341 886T355 883L480 774L465 753L338 809L216 752Z" />
<glyph unicode="&#xc3;" glyph-name="Atilde" horiz-adv-x="683" d="M222 0H0V29Q36 45 72 53L325 712H354L607 53Q627 49 646 44T683 29V0H427V29Q447 37 468 43T509 53L441 236H202L136 53Q178 47 222 29V0ZM222 288H424L345 500L326 586H324L299 498L222 288ZM501
821Q469 789 443 777T391 765Q372 765 356 770T323 782T292 793T261 799Q247 799 233 794T202 774L183 803Q221 837 250 849T305 862Q323 862 339 857T371 846T401 835T432 830Q445 830 458 834T488 850L501 821Z" />
<glyph unicode="&#xc4;" glyph-name="Adieresis" horiz-adv-x="683" d="M222 0H0V29Q36 45 72 53L325 712H354L607 53Q627 49 646 44T683 29V0H427V29Q447 37 468 43T509 53L441 236H202L136 53Q178 47 222 29V0ZM222 288H424L345 500L326 586H324L299 498L222
288ZM174 789Q174 813 190 825T231 837Q255 837 271 825T287 789Q287 766 271 754T231 742Q206 742 190 754T174 789ZM397 789Q397 813 413 825T453 837Q478 837 494 825T510 789Q510 766 494 754T453 742Q429 742 413 754T397 789Z" />
<glyph unicode="&#xc5;" glyph-name="Aring" horiz-adv-x="683" d="M230 788Q230 808 239 824T264 851T300 868T345 874Q364 874 383 869T419 854T444 829T454 791Q454 754 425 733T355 709L607 53Q627 49 646 44T683 29V0H427V29Q447 37 468 43T509 53L441 236H202L136
53Q178 47 222 29V0H0V29Q36 45 72 53L324 710Q282 714 256 734T230 788ZM222 288H424L345 500L326 586H324L299 498L222 288ZM286 788Q286 768 303 759T340 750Q366 750 382 759T398 787Q398 813 380 823T343 833Q318 833 302 824T286 788Z" />
<glyph unicode="&#xc6;" glyph-name="AE" horiz-adv-x="921" d="M842 700Q841 660 839 620T831 538H806L764 648H547V383H709L749 457H773Q781 358 773 255H749L709 331H547V52H777L825 172H851Q857 130 860 87T862 0H369V29Q404 45 451 53V256H255L139 53Q180
47 224 29V0H0V29Q36 45 72 53L426 652Q412 656 397 660T368 671V700H842ZM285 308H451V611H449L408 518L285 308Z" />
<glyph unicode="&#xc7;" glyph-name="Ccedilla" horiz-adv-x="644" d="M547 182H573Q578 154 582 112T584 29Q567 16 544 8T494 -4T442 -10T392 -12L368 -75Q428 -76 456 -97T485 -154Q485 -184 468 -206T424 -243T365 -265T304 -272V-239Q344 -233 371 -217T397
-172Q396 -144 374 -132T307 -116L343 -8Q205 7 129 93T53 350Q53 448 80 516T153 628T260 692T388 712Q454 712 499 704T578 678Q578 662 577 641T574 595T569 548T563 506H537L485 650Q474 656 449 658T398 660Q348 660 304 642T226 585T172 488T152 350Q152
279 170 222T222 124T305 62T416 40Q449 40 471 45T500 58L547 182Z" />
<glyph unicode="&#xc8;" glyph-name="Egrave" horiz-adv-x="582" d="M503 700Q502 660 500 620T492 538H466L425 648H207V383H370L409 457H434Q440 358 434 255H409L370 331H207V52H437L486 172H511Q518 130 521 87T522 0H29V29Q64 45 111 53V646Q91 650 70 656T29
671V700H503ZM356 769L338 750L113 841V861Q119 868 132 874T160 885T189 892T211 893L356 769Z" />
<glyph unicode="&#xc9;" glyph-name="Eacute" horiz-adv-x="582" d="M503 700Q502 660 500 620T492 538H466L425 648H207V383H370L409 457H434Q440 358 434 255H409L370 331H207V52H437L486 172H511Q518 130 521 87T522 0H29V29Q64 45 111 53V646Q91 650 70 656T29
671V700H503ZM361 893Q370 894 384 892T412 886T439 875T458 861V841L232 750L215 769L361 893Z" />
<glyph unicode="&#xca;" glyph-name="Ecircumflex" horiz-adv-x="582" d="M503 700Q502 660 500 620T492 538H466L425 648H207V383H370L409 457H434Q440 358 434 255H409L370 331H207V52H437L486 172H511Q518 130 521 87T522 0H29V29Q64 45 111 53V646Q91 650
70 656T29 671V700H503ZM175 752L161 771L288 883Q293 886 300 886T314 883L439 774L424 753L297 809L175 752Z" />
<glyph unicode="&#xcb;" glyph-name="Edieresis" horiz-adv-x="582" d="M503 700Q502 660 500 620T492 538H466L425 648H207V383H370L409 457H434Q440 358 434 255H409L370 331H207V52H437L486 172H511Q518 130 521 87T522 0H29V29Q64 45 111 53V646Q91 650 70
656T29 671V700H503ZM119 789Q119 813 135 825T176 837Q200 837 216 825T232 789Q232 766 216 754T176 742Q151 742 135 754T119 789ZM342 789Q342 813 358 825T398 837Q423 837 439 825T455 789Q455 766 439 754T398 742Q374 742 358 754T342 789Z" />
<glyph unicode="&#xcc;" glyph-name="Igrave" horiz-adv-x="352" d="M304 0H48V29Q87 47 128 53V646Q108 650 88 656T48 671V700H304V671Q286 663 265 657T224 646V53Q245 49 266 43T304 29V0ZM535 769L517 750L292 841V861Q298 868 311 874T339 885T368 892T390
893L535 769Z" />
<glyph unicode="&#xcd;" glyph-name="Iacute" horiz-adv-x="352" d="M304 0H48V29Q87 47 128 53V646Q108 650 88 656T48 671V700H304V671Q286 663 265 657T224 646V53Q245 49 266 43T304 29V0ZM240 893Q249 894 263 892T291 886T318 875T337 861V841L111 750L94
769L240 893Z" />
<glyph unicode="&#xce;" glyph-name="Icircumflex" horiz-adv-x="352" d="M304 0H48V29Q87 47 128 53V646Q108 650 88 656T48 671V700H304V671Q286 663 265 657T224 646V53Q245 49 266 43T304 29V0ZM308 752L294 771L421 883Q426 886 433 886T447 883L572 774L557
753L430 809L308 752Z" />
<glyph unicode="&#xcf;" glyph-name="Idieresis" horiz-adv-x="352" d="M304 0H48V29Q87 47 128 53V646Q108 650 88 656T48 671V700H304V671Q286 663 265 657T224 646V53Q245 49 266 43T304 29V0ZM265 789Q265 813 281 825T322 837Q346 837 362 825T378 789Q378
766 362 754T322 742Q297 742 281 754T265 789ZM488 789Q488 813 504 825T544 837Q569 837 585 825T601 789Q601 766 585 754T544 742Q520 742 504 754T488 789Z" />
<glyph unicode="&#xd0;" glyph-name="Eth" horiz-adv-x="709" d="M22 384H111V646Q88 651 67 657T29 671V700H131Q148 700 171 701T218 703T265 706T303 708Q388 708 453 685T564 617T632 507T656 359Q656 280 634 213T565 96T449 19T282 -9Q268 -9 249 -8T208
-5T166 -2T125 0H29V29Q64 45 111 53V332H22V384ZM289 656Q263 656 239 656T201 652V384H368V332H201V46Q206 45 219 45T248 44T276 43T296 43Q365 43 413 69T491 138T535 239T549 359Q549 408 536 460T492 556T412 628T289 656Z" />
<glyph unicode="&#xd1;" glyph-name="Ntilde" horiz-adv-x="732" d="M487 700H703V671Q661 643 621 631V-12H564L201 539L162 617H159L168 539V64Q209 53 245 29V0H29V29Q47 40 67 48T111 64V637Q91 645 72 654T35 672V700H204L519 225L565 139H569L564 225V631Q543
640 524 650T487 671V700ZM525 821Q493 789 467 777T415 765Q396 765 380 770T347 782T316 793T285 799Q271 799 257 794T226 774L207 803Q245 837 274 849T329 862Q347 862 363 857T395 846T425 835T456 830Q469 830 482 834T512 850L525 821Z" />
<glyph unicode="&#xd2;" glyph-name="Ograve" horiz-adv-x="740" d="M53 350Q53 428 74 494T136 609T236 685T370 712Q445 712 504 685T603 610T665 495T687 350Q687 272 666 206T604 91T504 15T370 -12Q295 -12 236 15T137 90T75 205T53 350ZM160 350Q160 286
173 230T214 131T282 65T379 40Q430 40 468 64T530 131T567 229T580 350Q580 414 567 470T527 569T459 635T362 660Q307 660 269 636T206 569T171 471T160 350ZM438 769L420 750L195 841V861Q201 868 214 874T242 885T271 892T293 893L438 769Z" />
<glyph unicode="&#xd3;" glyph-name="Oacute" horiz-adv-x="740" d="M53 350Q53 428 74 494T136 609T236 685T370 712Q445 712 504 685T603 610T665 495T687 350Q687 272 666 206T604 91T504 15T370 -12Q295 -12 236 15T137 90T75 205T53 350ZM160 350Q160 286
173 230T214 131T282 65T379 40Q430 40 468 64T530 131T567 229T580 350Q580 414 567 470T527 569T459 635T362 660Q307 660 269 636T206 569T171 471T160 350ZM422 893Q431 894 445 892T473 886T500 875T519 861V841L293 750L276 769L422 893Z" />
<glyph unicode="&#xd4;" glyph-name="Ocircumflex" horiz-adv-x="740" d="M53 350Q53 428 74 494T136 609T236 685T370 712Q445 712 504 685T603 610T665 495T687 350Q687 272 666 206T604 91T504 15T370 -12Q295 -12 236 15T137 90T75 205T53 350ZM160 350Q160
286 173 230T214 131T282 65T379 40Q430 40 468 64T530 131T567 229T580 350Q580 414 567 470T527 569T459 635T362 660Q307 660 269 636T206 569T171 471T160 350ZM245 752L231 771L358 883Q363 886 370 886T384 883L509 774L494 753L367 809L245 752Z" />
<glyph unicode="&#xd5;" glyph-name="Otilde" horiz-adv-x="740" d="M53 350Q53 428 74 494T136 609T236 685T370 712Q445 712 504 685T603 610T665 495T687 350Q687 272 666 206T604 91T504 15T370 -12Q295 -12 236 15T137 90T75 205T53 350ZM160 350Q160 286
173 230T214 131T282 65T379 40Q430 40 468 64T530 131T567 229T580 350Q580 414 567 470T527 569T459 635T362 660Q307 660 269 636T206 569T171 471T160 350ZM529 821Q497 789 471 777T419 765Q400 765 384 770T351 782T320 793T289 799Q275 799 261 794T230
774L211 803Q249 837 278 849T333 862Q351 862 367 857T399 846T429 835T460 830Q473 830 486 834T516 850L529 821Z" />
<glyph unicode="&#xd6;" glyph-name="Odieresis" horiz-adv-x="740" d="M53 350Q53 428 74 494T136 609T236 685T370 712Q445 712 504 685T603 610T665 495T687 350Q687 272 666 206T604 91T504 15T370 -12Q295 -12 236 15T137 90T75 205T53 350ZM160 350Q160
286 173 230T214 131T282 65T379 40Q430 40 468 64T530 131T567 229T580 350Q580 414 567 470T527 569T459 635T362 660Q307 660 269 636T206 569T171 471T160 350ZM202 789Q202 813 218 825T259 837Q283 837 299 825T315 789Q315 766 299 754T259 742Q234 742
218 754T202 789ZM425 789Q425 813 441 825T481 837Q506 837 522 825T538 789Q538 766 522 754T481 742Q457 742 441 754T425 789Z" />
<glyph unicode="&#xd7;" glyph-name="multiply" horiz-adv-x="533" d="M88 204L228 344L90 483L127 520L266 382L406 522L443 485L303 345L446 202L408 164L265 307L125 167L88 204Z" />
<glyph unicode="&#xd8;" glyph-name="Oslash" horiz-adv-x="740" d="M53 350Q53 428 74 494T136 609T236 685T370 712Q419 712 460 700T537 667L565 713L616 684L582 631Q633 582 660 510T687 350Q687 272 666 206T604 91T504 15T370 -12Q322 -12 281 -1T204 31L176
-13L129 16L159 65Q107 114 80 187T53 350ZM160 350Q160 290 172 237T208 143L498 606Q472 632 438 646T362 660Q307 660 269 636T206 569T171 471T160 350ZM580 350Q580 410 569 461T533 554L244 93Q270 67 303 54T379 40Q430 40 468 64T530 131T567 229T580 350Z"
/>
<glyph unicode="&#xd9;" glyph-name="Ugrave" horiz-adv-x="672" d="M10 700H264V671Q245 663 226 657T188 646V237Q188 184 199 149T233 92T287 61T361 51Q440 51 484 94T528 238V637Q505 645 485 653T449 671V700H662V671Q643 660 624 651T584 637V236Q584 172
567 126T520 50T446 6T349 -9Q224 -9 158 47T92 221V646Q51 652 10 671V700ZM401 769L383 750L158 841V861Q164 868 177 874T205 885T234 892T256 893L401 769Z" />
<glyph unicode="&#xda;" glyph-name="Uacute" horiz-adv-x="672" d="M10 700H264V671Q245 663 226 657T188 646V237Q188 184 199 149T233 92T287 61T361 51Q440 51 484 94T528 238V637Q505 645 485 653T449 671V700H662V671Q643 660 624 651T584 637V236Q584 172
567 126T520 50T446 6T349 -9Q224 -9 158 47T92 221V646Q51 652 10 671V700ZM465 893Q474 894 488 892T516 886T543 875T562 861V841L336 750L319 769L465 893Z" />
<glyph unicode="&#xdb;" glyph-name="Ucircumflex" horiz-adv-x="672" d="M10 700H264V671Q245 663 226 657T188 646V237Q188 184 199 149T233 92T287 61T361 51Q440 51 484 94T528 238V637Q505 645 485 653T449 671V700H662V671Q643 660 624 651T584 637V236Q584
172 567 126T520 50T446 6T349 -9Q224 -9 158 47T92 221V646Q51 652 10 671V700ZM232 752L218 771L345 883Q350 886 357 886T371 883L496 774L481 753L354 809L232 752Z" />
<glyph unicode="&#xdc;" glyph-name="Udieresis" horiz-adv-x="672" d="M10 700H264V671Q245 663 226 657T188 646V237Q188 184 199 149T233 92T287 61T361 51Q440 51 484 94T528 238V637Q505 645 485 653T449 671V700H662V671Q643 660 624 651T584 637V236Q584
172 567 126T520 50T446 6T349 -9Q224 -9 158 47T92 221V646Q51 652 10 671V700ZM189 789Q189 813 205 825T246 837Q270 837 286 825T302 789Q302 766 286 754T246 742Q221 742 205 754T189 789ZM412 789Q412 813 428 825T468 837Q493 837 509 825T525 789Q525
766 509 754T468 742Q444 742 428 754T412 789Z" />
<glyph unicode="&#xdd;" glyph-name="Yacute" horiz-adv-x="644" d="M424 700H644V671Q606 652 568 646L379 298V53Q418 48 455 29V0H201V29Q237 47 283 53V297L81 646Q58 650 39 656T0 671V700H265V671Q250 665 231 659T188 646L352 352L506 646Q483 651 463
657T424 671V700ZM465 893Q474 894 488 892T516 886T543 875T562 861V841L336 750L319 769L465 893Z" />
<glyph unicode="&#xde;" glyph-name="Thorn" horiz-adv-x="595" d="M207 53Q263 45 303 28V0H29V28Q49 39 70 44T111 53V647Q70 655 31 672V700H287V672Q269 663 248 657T207 647V598Q230 600 252 601T297 602Q346 602 393 592T476 557T535 492T557 391Q557 334
534 294T473 227T385 188T284 175Q279 175 269 175T246 175T223 177T207 179V53ZM275 550Q251 550 236 549T207 544V231Q212 229 221 229T241 228T262 227T278 227Q313 227 344 236T398 266T436 317T450 391Q450 469 404 509T275 550Z" />
<glyph unicode="&#xdf;" glyph-name="germandbls" horiz-adv-x="638" d="M433 590Q433 612 425 633T402 670T370 697T331 708Q304 708 280 703T238 678T208 623T197 526V0H41V25Q72 43 107 49V450H31V476Q66 498 107 509V544Q107 606 129 646T183 710T254 743T325
752Q379 752 416 737T477 697T511 640T523 574Q485 569 455 560T404 534T372 495T361 438Q361 407 378 385T422 343T480 305T537 263T581 209T599 138Q599 68 551 28T414 -12Q331 -12 252 17Q254 42 260 63T276 102H301L366 40Q377 35 387 34T412 32Q460 32 484
56T509 114Q509 147 492 170T448 212T390 250T333 293T289 349T271 427Q271 482 307 523T433 590Z" />
<glyph unicode="&#xe0;" glyph-name="agrave" horiz-adv-x="505" d="M410 131Q410 109 411 93T413 59L482 49V28Q457 15 427 5T368 -10H343Q333 13 331 40T328 101H323Q319 81 308 61T278 24T234 -2T177 -12Q116 -12 78 25T39 122Q39 168 57 197T112 244T201 268T324
280Q328 323 327 357T316 416T288 454T239 468Q225 468 208 467T173 458L126 338H100Q90 368 83 400T73 463Q111 486 157 499T261 512Q312 512 342 498T389 460T410 409T415 353Q415 293 413 238T410 131ZM217 50Q242 50 261 60T293 84T314 112T325 137V242Q267
242 230 236T172 217T143 185T135 140Q135 97 157 74T217 50ZM316 593L294 576L108 725V745Q114 750 127 754T157 762T187 766T210 767L316 593Z" />
<glyph unicode="&#xe1;" glyph-name="aacute" horiz-adv-x="505" d="M410 131Q410 109 411 93T413 59L482 49V28Q457 15 427 5T368 -10H343Q333 13 331 40T328 101H323Q319 81 308 61T278 24T234 -2T177 -12Q116 -12 78 25T39 122Q39 168 57 197T112 244T201 268T324
280Q328 323 327 357T316 416T288 454T239 468Q225 468 208 467T173 458L126 338H100Q90 368 83 400T73 463Q111 486 157 499T261 512Q312 512 342 498T389 460T410 409T415 353Q415 293 413 238T410 131ZM217 50Q242 50 261 60T293 84T314 112T325 137V242Q267
242 230 236T172 217T143 185T135 140Q135 97 157 74T217 50ZM305 767Q313 768 326 767T353 762T379 755T397 745V726L210 575L188 593L305 767Z" />
<glyph unicode="&#xe2;" glyph-name="acircumflex" horiz-adv-x="505" d="M410 131Q410 109 411 93T413 59L482 49V28Q457 15 427 5T368 -10H343Q333 13 331 40T328 101H323Q319 81 308 61T278 24T234 -2T177 -12Q116 -12 78 25T39 122Q39 168 57 197T112 244T201
268T324 280Q328 323 327 357T316 416T288 454T239 468Q225 468 208 467T173 458L126 338H100Q90 368 83 400T73 463Q111 486 157 499T261 512Q312 512 342 498T389 460T410 409T415 353Q415 293 413 238T410 131ZM217 50Q242 50 261 60T293 84T314 112T325 137V242Q267
242 230 236T172 217T143 185T135 140Q135 97 157 74T217 50ZM157 590L128 606L238 792Q243 795 250 795T263 792L377 607L350 590L247 697L157 590Z" />
<glyph unicode="&#xe3;" glyph-name="atilde" horiz-adv-x="505" d="M410 131Q410 109 411 93T413 59L482 49V28Q457 15 427 5T368 -10H343Q333 13 331 40T328 101H323Q319 81 308 61T278 24T234 -2T177 -12Q116 -12 78 25T39 122Q39 168 57 197T112 244T201 268T324
280Q328 323 327 357T316 416T288 454T239 468Q225 468 208 467T173 458L126 338H100Q90 368 83 400T73 463Q111 486 157 499T261 512Q312 512 342 498T389 460T410 409T415 353Q415 293 413 238T410 131ZM217 50Q242 50 261 60T293 84T314 112T325 137V242Q267
242 230 236T172 217T143 185T135 140Q135 97 157 74T217 50ZM396 672Q364 640 338 628T288 615Q270 615 254 620T223 632T194 643T164 649Q151 649 138 644T108 625L89 653Q126 688 155 700T207 712Q225 712 240 707T270 696T298 685T328 680Q341 680 354 684T383
700L396 672Z" />
<glyph unicode="&#xe4;" glyph-name="adieresis" horiz-adv-x="505" d="M410 131Q410 109 411 93T413 59L482 49V28Q457 15 427 5T368 -10H343Q333 13 331 40T328 101H323Q319 81 308 61T278 24T234 -2T177 -12Q116 -12 78 25T39 122Q39 168 57 197T112 244T201
268T324 280Q328 323 327 357T316 416T288 454T239 468Q225 468 208 467T173 458L126 338H100Q90 368 83 400T73 463Q111 486 157 499T261 512Q312 512 342 498T389 460T410 409T415 353Q415 293 413 238T410 131ZM217 50Q242 50 261 60T293 84T314 112T325 137V242Q267
242 230 236T172 217T143 185T135 140Q135 97 157 74T217 50ZM77 663Q77 687 92 701T131 716Q155 716 170 702T185 663Q185 640 170 626T131 612Q107 612 92 626T77 663ZM299 663Q299 687 314 701T353 716Q377 716 392 702T407 663Q407 640 392 626T353 612Q329
612 314 626T299 663Z" />
<glyph unicode="&#xe5;" glyph-name="aring" horiz-adv-x="505" d="M410 131Q410 109 411 93T413 59L482 49V28Q457 15 427 5T368 -10H343Q333 13 331 40T328 101H323Q319 81 308 61T278 24T234 -2T177 -12Q116 -12 78 25T39 122Q39 168 57 197T112 244T201 268T324
280Q328 323 327 357T316 416T288 454T239 468Q225 468 208 467T173 458L126 338H100Q90 368 83 400T73 463Q111 486 157 499T261 512Q312 512 342 498T389 460T410 409T415 353Q415 293 413 238T410 131ZM217 50Q242 50 261 60T293 84T314 112T325 137V242Q267
242 230 236T172 217T143 185T135 140Q135 97 157 74T217 50ZM143 683Q143 724 171 752T243 780Q282 780 309 755T337 686Q337 665 329 648T308 619T278 600T242 593Q197 593 170 617T143 683ZM195 685Q195 659 208 647T239 634Q259 634 271 645T284 682Q284 709
272 724T240 739Q216 739 206 724T195 685Z" />
<glyph unicode="&#xe6;" glyph-name="ae" horiz-adv-x="778" d="M390 453Q401 465 414 476T444 495T485 507T542 512Q577 512 611 503T671 471T714 413T731 322Q731 305 730 288T724 250H414Q414 208 424 172T455 108T507 66T582 50Q599 50 617 52T653 60T684
71T707 86L722 70Q714 53 697 38T658 12T609 -5T556 -12Q529 -12 500 -7T442 10T389 44T350 98Q342 75 326 55T288 20T237 -3T177 -12Q116 -12 78 25T39 122Q39 168 57 197T112 244T201 268T324 280Q327 311 327 338Q327 399 308 433T239 468Q225 468 208 467T173
458L126 338H100Q90 368 83 400T73 463Q111 486 157 499T261 512Q318 512 348 496T390 453ZM217 50Q242 50 260 59T292 82T313 110T324 134V242Q266 242 229 236T171 217T143 185T135 140Q135 97 157 74T217 50ZM538 468Q482 468 452 430T416 294H635Q636 303 636
311T637 328Q637 392 613 430T538 468Z" />
<glyph unicode="&#xe7;" glyph-name="ccedilla" horiz-adv-x="466" d="M427 70Q408 34 367 11T269 -12L248 -68Q303 -70 327 -88T354 -139Q355 -168 340 -189T300 -225T247 -245T191 -251V-221Q229 -216 252 -201T274 -155Q273 -130 254 -119T192 -105L226 -8Q133
6 87 75T41 250Q41 377 103 444T272 512Q321 512 359 504T425 481Q422 448 414 407T394 339H367L325 458Q318 463 309 465T279 468Q211 468 174 419T137 251Q137 213 147 177T179 113T233 67T309 50Q344 50 370 60T414 84L427 70Z" />
<glyph unicode="&#xe8;" glyph-name="egrave" horiz-adv-x="503" d="M446 70Q438 53 421 38T382 12T334 -5T281 -12Q222 -12 177 6T102 59T57 142T41 250Q41 378 100 445T267 512Q302 512 336 503T396 471T439 413T456 322Q456 305 455 288T449 250H137Q137 208
147 172T179 108T232 66T307 50Q342 50 378 60T432 86L446 70ZM263 468Q206 468 176 430T140 294H360Q361 303 361 311T362 328Q362 392 338 430T263 468ZM325 593L303 576L117 725V745Q123 750 136 754T166 762T196 766T219 767L325 593Z" />
<glyph unicode="&#xe9;" glyph-name="eacute" horiz-adv-x="503" d="M446 70Q438 53 421 38T382 12T334 -5T281 -12Q222 -12 177 6T102 59T57 142T41 250Q41 378 100 445T267 512Q302 512 336 503T396 471T439 413T456 322Q456 305 455 288T449 250H137Q137 208
147 172T179 108T232 66T307 50Q342 50 378 60T432 86L446 70ZM263 468Q206 468 176 430T140 294H360Q361 303 361 311T362 328Q362 392 338 430T263 468ZM322 767Q330 768 343 767T370 762T396 755T414 745V726L227 575L205 593L322 767Z" />
<glyph unicode="&#xea;" glyph-name="ecircumflex" horiz-adv-x="503" d="M446 70Q438 53 421 38T382 12T334 -5T281 -12Q222 -12 177 6T102 59T57 142T41 250Q41 378 100 445T267 512Q302 512 336 503T396 471T439 413T456 322Q456 305 455 288T449 250H137Q137
208 147 172T179 108T232 66T307 50Q342 50 378 60T432 86L446 70ZM263 468Q206 468 176 430T140 294H360Q361 303 361 311T362 328Q362 392 338 430T263 468ZM166 590L137 606L247 792Q252 795 259 795T272 792L386 607L359 590L256 697L166 590Z" />
<glyph unicode="&#xeb;" glyph-name="edieresis" horiz-adv-x="503" d="M446 70Q438 53 421 38T382 12T334 -5T281 -12Q222 -12 177 6T102 59T57 142T41 250Q41 378 100 445T267 512Q302 512 336 503T396 471T439 413T456 322Q456 305 455 288T449 250H137Q137
208 147 172T179 108T232 66T307 50Q342 50 378 60T432 86L446 70ZM263 468Q206 468 176 430T140 294H360Q361 303 361 311T362 328Q362 392 338 430T263 468ZM93 663Q93 687 108 701T147 716Q171 716 186 702T201 663Q201 640 186 626T147 612Q123 612 108 626T93
663ZM315 663Q315 687 330 701T369 716Q393 716 408 702T423 663Q423 640 408 626T369 612Q345 612 330 626T315 663Z" />
<glyph unicode="&#xec;" glyph-name="igrave" horiz-adv-x="301" d="M263 0H41V25Q56 33 72 38T107 49V442L41 450V476Q70 488 104 497T172 512H197V49Q217 44 233 39T263 25V0ZM458 593L436 576L250 725V745Q256 750 269 754T299 762T329 766T352 767L458 593Z" />
<glyph unicode="&#xed;" glyph-name="iacute" horiz-adv-x="301" d="M263 0H41V25Q56 33 72 38T107 49V442L41 450V476Q70 488 104 497T172 512H197V49Q217 44 233 39T263 25V0ZM199 767Q207 768 220 767T247 762T273 755T291 745V726L104 575L82 593L199 767Z" />
<glyph unicode="&#xee;" glyph-name="icircumflex" horiz-adv-x="301" d="M263 0H41V25Q56 33 72 38T107 49V442L41 450V476Q70 488 104 497T172 512H197V49Q217 44 233 39T263 25V0ZM311 590L282 606L392 792Q397 795 404 795T417 792L531 607L504 590L401 697L311 590Z" />
<glyph unicode="&#xef;" glyph-name="idieresis" horiz-adv-x="301" d="M263 0H41V25Q56 33 72 38T107 49V442L41 450V476Q70 488 104 497T172 512H197V49Q217 44 233 39T263 25V0ZM242 663Q242 687 257 701T296 716Q320 716 335 702T350 663Q350 640 335 626T296
612Q272 612 257 626T242 663ZM464 663Q464 687 479 701T518 716Q542 716 557 702T572 663Q572 640 557 626T518 612Q494 612 479 626T464 663Z" />
<glyph unicode="&#xf0;" glyph-name="eth" horiz-adv-x="535" d="M158 604L272 650Q246 677 216 698T151 733V750H212Q243 741 274 723T335 676L445 722L464 679L371 641Q425 578 461 489T497 289Q497 224 483 169T439 73T365 11T262 -12Q208 -12 165 6T91 59T44
139T28 242Q28 309 47 360T96 444T166 495T245 512Q298 512 330 496T386 455Q374 493 354 534T304 613L178 561L158 604ZM124 242Q124 201 133 164T162 97T207 51T269 34Q301 34 326 51T367 99T392 175T401 274Q401 327 398 358T391 402Q376 427 344 443T264 460Q203
460 164 406T124 242Z" />
<glyph unicode="&#xf1;" glyph-name="ntilde" horiz-adv-x="594" d="M577 0H362V25Q389 39 421 49V286Q421 362 399 406T319 450Q294 450 273 441T235 417T206 382T187 341V49Q218 43 247 25V0H31V25Q56 38 97 49V442L31 450V476Q57 487 91 496T162 512H187V400H188Q209
446 248 479T344 512Q384 512 415 503T468 469T500 405T511 302V49Q551 42 577 25V0ZM451 672Q419 640 393 628T343 615Q325 615 309 620T278 632T249 643T219 649Q206 649 193 644T163 625L144 653Q181 688 210 700T262 712Q280 712 295 707T325 696T353 685T383
680Q396 680 409 684T438 700L451 672Z" />
<glyph unicode="&#xf2;" glyph-name="ograve" horiz-adv-x="553" d="M41 250Q41 313 57 361T105 443T179 494T276 512Q338 512 383 493T456 440T498 357T512 250Q512 124 448 56T276 -12Q216 -12 172 6T99 59T56 142T41 250ZM137 250Q137 205 145 165T172 96T221
49T293 32Q347 32 381 85T416 250Q416 296 408 335T381 404T335 451T268 468Q209 468 173 415T137 250ZM340 593L318 576L132 725V745Q138 750 151 754T181 762T211 766T234 767L340 593Z" />
<glyph unicode="&#xf3;" glyph-name="oacute" horiz-adv-x="553" d="M41 250Q41 313 57 361T105 443T179 494T276 512Q338 512 383 493T456 440T498 357T512 250Q512 124 448 56T276 -12Q216 -12 172 6T99 59T56 142T41 250ZM137 250Q137 205 145 165T172 96T221
49T293 32Q347 32 381 85T416 250Q416 296 408 335T381 404T335 451T268 468Q209 468 173 415T137 250ZM329 767Q337 768 350 767T377 762T403 755T421 745V726L234 575L212 593L329 767Z" />
<glyph unicode="&#xf4;" glyph-name="ocircumflex" horiz-adv-x="553" d="M41 250Q41 313 57 361T105 443T179 494T276 512Q338 512 383 493T456 440T498 357T512 250Q512 124 448 56T276 -12Q216 -12 172 6T99 59T56 142T41 250ZM137 250Q137 205 145 165T172
96T221 49T293 32Q347 32 381 85T416 250Q416 296 408 335T381 404T335 451T268 468Q209 468 173 415T137 250ZM180 590L151 606L261 792Q266 795 273 795T286 792L400 607L373 590L270 697L180 590Z" />
<glyph unicode="&#xf5;" glyph-name="otilde" horiz-adv-x="553" d="M41 250Q41 313 57 361T105 443T179 494T276 512Q338 512 383 493T456 440T498 357T512 250Q512 124 448 56T276 -12Q216 -12 172 6T99 59T56 142T41 250ZM137 250Q137 205 145 165T172 96T221
49T293 32Q347 32 381 85T416 250Q416 296 408 335T381 404T335 451T268 468Q209 468 173 415T137 250ZM429 672Q397 640 371 628T321 615Q303 615 287 620T256 632T227 643T197 649Q184 649 171 644T141 625L122 653Q159 688 188 700T240 712Q258 712 273 707T303
696T331 685T361 680Q374 680 387 684T416 700L429 672Z" />
<glyph unicode="&#xf6;" glyph-name="odieresis" horiz-adv-x="553" d="M41 250Q41 313 57 361T105 443T179 494T276 512Q338 512 383 493T456 440T498 357T512 250Q512 124 448 56T276 -12Q216 -12 172 6T99 59T56 142T41 250ZM137 250Q137 205 145 165T172 96T221
49T293 32Q347 32 381 85T416 250Q416 296 408 335T381 404T335 451T268 468Q209 468 173 415T137 250ZM111 663Q111 687 126 701T165 716Q189 716 204 702T219 663Q219 640 204 626T165 612Q141 612 126 626T111 663ZM333 663Q333 687 348 701T387 716Q411 716
426 702T441 663Q441 640 426 626T387 612Q363 612 348 626T333 663Z" />
<glyph unicode="&#xf7;" glyph-name="divide" horiz-adv-x="533" d="M42 372H492V319H42V372ZM198 535Q198 565 217 583T266 601Q297 601 316 583T335 535Q335 506 316 488T266 470Q236 470 217 488T198 535ZM198 154Q198 184 217 202T266 220Q297 220 316 202T335
154Q335 125 316 107T266 89Q236 89 217 107T198 154Z" />
<glyph unicode="&#xf8;" glyph-name="oslash" horiz-adv-x="553" d="M116 41Q78 76 60 129T41 250Q41 313 57 361T105 443T179 494T276 512Q353 512 404 482L450 553L488 527L441 456Q477 421 494 369T512 250Q512 124 448 56T276 -12Q240 -12 210 -5T154 15L104
-62L66 -35L116 41ZM137 250Q137 211 143 177T164 114L366 425Q348 446 324 457T268 468Q208 468 173 415T137 250ZM416 250Q416 287 410 320T391 381L191 71Q227 32 293 32Q347 32 381 85T416 250Z" />
<glyph unicode="&#xf9;" glyph-name="ugrave" horiz-adv-x="574" d="M77 198Q77 261 80 321T83 442L17 450V476Q49 488 82 497T148 512H173Q173 437 170 363T167 216Q167 177 171 146T187 94T219 62T270 50Q315 50 345 82T393 167V442L328 450V476Q359 488 392
497T458 512H483V57L549 49V28Q520 15 491 5T429 -10H404L397 109H393Q388 88 376 67T343 28T298 -1T242 -12Q202 -12 172 -3T120 31T88 95T77 198ZM351 593L329 576L143 725V745Q149 750 162 754T192 762T222 766T245 767L351 593Z" />
<glyph unicode="&#xfa;" glyph-name="uacute" horiz-adv-x="574" d="M77 198Q77 261 80 321T83 442L17 450V476Q49 488 82 497T148 512H173Q173 437 170 363T167 216Q167 177 171 146T187 94T219 62T270 50Q315 50 345 82T393 167V442L328 450V476Q359 488 392
497T458 512H483V57L549 49V28Q520 15 491 5T429 -10H404L397 109H393Q388 88 376 67T343 28T298 -1T242 -12Q202 -12 172 -3T120 31T88 95T77 198ZM338 767Q346 768 359 767T386 762T412 755T430 745V726L243 575L221 593L338 767Z" />
<glyph unicode="&#xfb;" glyph-name="ucircumflex" horiz-adv-x="574" d="M77 198Q77 261 80 321T83 442L17 450V476Q49 488 82 497T148 512H173Q173 437 170 363T167 216Q167 177 171 146T187 94T219 62T270 50Q315 50 345 82T393 167V442L328 450V476Q359 488
392 497T458 512H483V57L549 49V28Q520 15 491 5T429 -10H404L397 109H393Q388 88 376 67T343 28T298 -1T242 -12Q202 -12 172 -3T120 31T88 95T77 198ZM190 590L161 606L271 792Q276 795 283 795T296 792L410 607L383 590L280 697L190 590Z" />
<glyph unicode="&#xfc;" glyph-name="udieresis" horiz-adv-x="574" d="M77 198Q77 261 80 321T83 442L17 450V476Q49 488 82 497T148 512H173Q173 437 170 363T167 216Q167 177 171 146T187 94T219 62T270 50Q315 50 345 82T393 167V442L328 450V476Q359 488
392 497T458 512H483V57L549 49V28Q520 15 491 5T429 -10H404L397 109H393Q388 88 376 67T343 28T298 -1T242 -12Q202 -12 172 -3T120 31T88 95T77 198ZM121 663Q121 687 136 701T175 716Q199 716 214 702T229 663Q229 640 214 626T175 612Q151 612 136 626T121
663ZM343 663Q343 687 358 701T397 716Q421 716 436 702T451 663Q451 640 436 626T397 612Q373 612 358 626T343 663Z" />
<glyph unicode="&#xfd;" glyph-name="yacute" horiz-adv-x="505" d="M42 450Q27 454 15 460T-11 474V500H198V475Q177 461 141 450L269 154L288 92H290L305 155L400 450Q370 456 345 474V500H516V474Q495 460 459 450L303 0Q279 -64 258 -103T215 -166T171 -199T122
-215Q111 -196 103 -173T88 -129L101 -105H205Q211 -97 215 -90T225 -71T236 -43T250 0L42 450ZM315 767Q323 768 336 767T363 762T389 755T407 745V726L220 575L198 593L315 767Z" />
<glyph unicode="&#xfe;" glyph-name="thorn" horiz-adv-x="566" d="M95 682L19 690V716Q45 728 84 737T160 752H185V400H186Q206 451 242 481T336 512Q425 512 474 453T523 261Q523 198 507 147T460 61T386 7T289 -12Q252 -12 231 -8T185 8V-151Q201 -153 217
-158T251 -175V-200H29V-175Q63 -159 95 -151V682ZM304 450Q255 450 226 419T185 334V54Q203 43 225 38T284 32Q317 32 343 49T388 97T417 169T427 261Q427 302 421 336T400 396T362 436T304 450Z" />
<glyph unicode="&#xff;" glyph-name="ydieresis" horiz-adv-x="505" d="M42 450Q27 454 15 460T-11 474V500H198V475Q177 461 141 450L269 154L288 92H290L305 155L400 450Q370 456 345 474V500H516V474Q495 460 459 450L303 0Q279 -64 258 -103T215 -166T171
-199T122 -215Q111 -196 103 -173T88 -129L101 -105H205Q211 -97 215 -90T225 -71T236 -43T250 0L42 450ZM98 663Q98 687 113 701T152 716Q176 716 191 702T206 663Q206 640 191 626T152 612Q128 612 113 626T98 663ZM320 663Q320 687 335 701T374 716Q398 716
413 702T428 663Q428 640 413 626T374 612Q350 612 335 626T320 663Z" />
<glyph unicode="&#x2013;" glyph-name="endash" horiz-adv-x="626" d="M72 313H554V250H72V313Z" />
<glyph unicode="&#x2014;" glyph-name="emdash" horiz-adv-x="886" d="M72 313H814V250H72V313Z" />
<glyph unicode="&#x2018;" glyph-name="quoteleft" horiz-adv-x="292" d="M228 790Q190 778 168 754T150 692Q161 683 181 674T216 659Q220 643 216 628T203 602T182 583T160 574Q125 577 99 600T73 666Q73 691 81 716T107 762T150 800T212 824L228 790Z" />
<glyph unicode="&#x2019;" glyph-name="quoteright" horiz-adv-x="292" d="M57 474Q96 486 121 515T142 582Q131 591 111 600T76 615Q71 631 75 646T89 672T109 691T132 699Q165 696 192 674T219 607Q219 583 209 557T180 508T134 467T74 440L57 474Z" />
<glyph unicode="&#x201a;" glyph-name="quotesinglbase" horiz-adv-x="292" d="M57 -111Q96 -99 121 -70T142 -3Q131 6 111 15T76 30Q71 46 75 61T89 87T109 106T132 114Q165 111 192 89T219 22Q219 -2 209 -28T180 -77T134 -118T74 -145L57 -111Z" />
<glyph unicode="&#x201c;" glyph-name="quotedblleft" horiz-adv-x="474" d="M410 790Q372 778 350 754T332 692Q343 683 363 674T398 659Q402 643 398 628T385 602T364 583T342 574Q307 577 281 600T255 666Q255 691 263 716T289 762T332 800T394 824L410 790ZM228
790Q190 778 168 754T150 692Q161 683 181 674T216 659Q220 643 216 628T203 602T182 583T160 574Q125 577 99 600T73 666Q73 691 81 716T107 762T150 800T212 824L228 790Z" />
<glyph unicode="&#x201d;" glyph-name="quotedblright" horiz-adv-x="474" d="M239 474Q278 486 303 515T324 582Q313 591 293 600T258 615Q253 631 257 646T271 672T291 691T314 699Q347 696 374 674T401 607Q401 583 391 557T362 508T316 467T256 440L239 474ZM57
474Q96 486 121 515T142 582Q131 591 111 600T76 615Q71 631 75 646T89 672T109 691T132 699Q165 696 192 674T219 607Q219 583 209 557T180 508T134 467T74 440L57 474Z" />
<glyph unicode="&#x201e;" glyph-name="quotedblbase" horiz-adv-x="474" d="M239 -111Q278 -99 303 -70T324 -3Q313 6 293 15T258 30Q253 46 257 61T271 87T291 106T314 114Q347 111 374 89T401 22Q401 -2 391 -28T362 -77T316 -118T256 -145L239 -111ZM57 -111Q96
-99 121 -70T142 -3Q131 6 111 15T76 30Q71 46 75 61T89 87T109 106T132 114Q165 111 192 89T219 22Q219 -2 209 -28T180 -77T134 -118T74 -145L57 -111Z" />
<glyph unicode="&#x2022;" glyph-name="bullet" horiz-adv-x="455" d="M87 311Q87 342 98 368T128 412T173 441T228 452Q257 452 282 443T327 415T357 370T368 311Q368 278 357 252T327 208T283 180T228 170Q199 170 173 179T128 207T98 252T87 311Z" />
<glyph unicode="&#x2039;" glyph-name="guilsinglleft" horiz-adv-x="280" d="M24 259L196 464L220 445L115 266L226 77L203 57L24 259Z" />
<glyph unicode="&#x203a;" glyph-name="guilsinglright" horiz-adv-x="280" d="M77 58L54 77L165 261L59 445L83 464L255 260L77 58Z" />
</font>
</defs>
</svg>
